Had tail stone i if age sample a queens

Queens Of The Stone Age Continue To Parcel Out New Album

Use been in a sentence been sentence examples

if i had a tail queens stone age sample

Queens of the Stone Age In My Head Music Video. By the sample of this video, it seems we have a band returned to the good old days of “Hot Fuss”. Awaiting for the arrival of the new album “Battle Born” scheduled for September we can enjoy for now this electrifying “Runaways”. Watch Queens of the Stone Age ‘If I Had a Tail’ Video, 6-9-2019 · Like the Beatles White album, this collection of gems has something for everyone, from the poppy " I sat by the ocean " to the powerhouse juggernaut of " If I had a tail " to the smouldering magnificence of " Kalopsia " to the funk and grind of " Smooth Sailing ". "Its all down hill from here" Josh reflects on closer " Like Clockwork "..

Like Clockwork Amazon.co.uk Music

T.U.B.E. 2018. If I Had A Tail: Queens of the Stone Age: 1: 2014: Smooth Sailing: Queens of the Stone Age: 1: 2017: The Way You Used to Do: Queens of the Stone Age: 1: Queens of the Stone Age: 1: 2002: Sample This School Boy: Queens of the Stone Age: 1: 2004: Stone Age Complication: Queens of the Stone Age: 1: EP + Compilation. Year Title Artist, Check out Queens Of The Stone Age on Amazon Music. Stream ad-free or purchase CD's and MP3s now on Amazon..

Baixe grátis o álbum Queens of the Stone Age - …Like Clockwork (2013). Faça o download de todas as músicas do disco num só arquivo zipado, compatível com celular e desktop. Album details. Artist: Queens of the Stone Age: Album Queens of the Stone Age / Like -0.36 dB -14.59 dB 3:36 03-The Vampyre Of Time And Memory DR9 -0.62 dB -12.54 dB 4:57 04-If I Had A Tail DR9 -0.30 dB -10.66 dB 3:58 05-My God Is The Sun DR9 -0.86 dB -13.93 dB 4:39 06-Kalopsia DR9 -0.33 dB …

All the surface evidence onLike Clockwork suggests Josh Homme is steering Queens of the Stone Age back to familiar territory. Once again, he's enlisted drummer Dave Grohl as his anchor and he's made amends with his erstwhile bassist Nick Oliveri, suggesting Homme is returning to either Rated R or Songs for the Deaf, the two turn-of-the It's interesting to hear the Guitarist complaining that they had to trim their Set down because it being Part of a Festival. Usually they' d play around a 3 Hours + Set. Although this Concert had been trimmed down to 84 Minutes - they are glorious 84 Minutes!

16-5-2013 · Queens of the Stone Age are pretty much releasing all of their new album, …Like Clockwork, in little pieces, and we’re all the better for it. Thanks to the disturbing, yet visually arresting work of UK artist Boneface, each clip has been accompanied by some truly unique animation of a dystopian 29-6-2013 · Former Queens Of The Stone Age bassist Nick Oliveri was involved in a car accident earlier this week, according to reports. It is unknown whether Oliveri sustained any serious injuries in the auto-accident, but his band Mondo Generator posted a message on their official Facebook account revealing that he was “shaken up” after the collision.

Official Queens Of The Stone Age If I Had a Tail lyrics at CD Universe. Gitchy, gitchy Ooh la la Da doo ron ron You won't get far I'm machine I'm obsolete In the land of the free Lobotomy I wanna su Check out Queens Of The Stone Age on Amazon Music. Stream ad-free or purchase CD's and MP3s now on Amazon.

By the sample of this video, it seems we have a band returned to the good old days of “Hot Fuss”. Awaiting for the arrival of the new album “Battle Born” scheduled for September we can enjoy for now this electrifying “Runaways”. Watch Queens of the Stone Age ‘If I Had a Tail’ Video A complete lack of clothing, however, was often associated with youth or poverty; it was common for children of all social classes to be unclothed up to the age of six, and for slaves to remain unclad for the majority of their lives. [failed verification] Certain clothing …

A complete lack of clothing, however, was often associated with youth or poverty; it was common for children of all social classes to be unclothed up to the age of six, and for slaves to remain unclad for the majority of their lives. [failed verification] Certain clothing … Official Queens Of The Stone Age Vampyre of Time and Memory lyrics at CD Universe. I want God to come and take me home 'Cause I'm all alone in this crowd Who are you to me? Who am I …

It's interesting to hear the Guitarist complaining that they had to trim their Set down because it being Part of a Festival. Usually they' d play around a 3 Hours + Set. Although this Concert had been trimmed down to 84 Minutes - they are glorious 84 Minutes! Castles Dragons Kings and Queens Theme Ideas for Your Library and Literacy Activities for your Preschool Classroom. Castle Word Wall. Place words with pictures on the library wall: Castles, princess, queen, king, moat, knight, crocodile, etc. Puppet Fun. Add medieval puppets in the library for the children to act out some of their favorite stories.

9-10-2019 · Licensing "If I Had A Tail" by Queens Of The Stone Age Please select the type of project you need a license for from the list below. If you're not sure what you need, that's OK. Discografia de Queens of the Stone Age; Queens of the Stone Age performing at the Eurockéennes festival near Belfort, France, July 1, 2007. From left to right: Josh Homme, Troy Van Leeuwen, Dean Fertita, Michael Shuman: "If I Had a Tail" "My God Is the Sun" "Smooth Sailing

Queens of the Stone Age is a rock band from Palm Desert, California, United States. The band is frequently labeled stoner rock, although they reject the label. They developed a style of riff-oriented, heavy music which the band's founder and mastermind Josh Homme described as "robot rock", saying that he "wanted to create a heavy sound based o… 22-3-2016 · Queens Of The Stone Age -Like Clockwork - Amazon.com Music stone age like clockwork queens of the stone songs for the deaf josh homme appear missing sat by the ocean era vulgaris god is the sun If you want to check this album out I think most people will say to listen to "If I Had a Tail" which is a great song and does represent the

Queens Of The Stone Age's Josh Homme instructs Reading

if i had a tail queens stone age sample

Queens of the Stone Age. 9-7-2013 · A handful of bands have previously released music on USB drives, but it's been a few years since we've heard of anyone bothering with the fo... Queens of the Stone Age Expand North American Tour Schedule, Add Toronto Date Published Jun 10, 2013 Queens of …, If I Had A Tail: Queens of the Stone Age: 1: 2014: Smooth Sailing: Queens of the Stone Age: 1: 2017: The Way You Used to Do: Queens of the Stone Age: 1: Queens of the Stone Age: 1: 2002: Sample This School Boy: Queens of the Stone Age: 1: 2004: Stone Age Complication: Queens of the Stone Age: 1: EP + Compilation. Year Title Artist.

Top Tracks Queens of the Stone Age - YouTube

if i had a tail queens stone age sample

Musiclipse A website about the best music of the moment. Find album reviews, stream songs, credits and award information for XXX - Original Soundtrack on AllMusic is to be trusted. Where James Bond had John Barry, XXX has a bunch of alt-metal meatheads and Gavin Rossdale's first solo track, "Adrenaline," is Bush with a hip makeover, and Queens of the Stone Age show why they're considered https://en.wikipedia.org/wiki/...Like_Clockwork Bat For Lashes – “Laura” After the brilliant and acclaimed album Two Suns (2009) we can hear the first sample from the new work. Natasha Khan, aka Bat For Lashes, appears naked on the cover of his new album, Watch Queens of the Stone Age ‘If I Had a Tail’ Video.

if i had a tail queens stone age sample

  • Queens of the Stone Age
  • queens on Spotify
  • Musiclipse A website about the best music of the moment

  • A playlist featuring Queens of the Stone Age 26-3-2018 · Innings Festival draws to a triumphant close with Chris Stapleton, Counting Crows in Tempe. Chris Stapleton brought the Innings Festival to a triumphant close, ending a weekend that also featured Avett Brothers and Queens of the Stone Age.

    Discografia de Queens of the Stone Age; Queens of the Stone Age performing at the Eurockéennes festival near Belfort, France, July 1, 2007. From left to right: Josh Homme, Troy Van Leeuwen, Dean Fertita, Michael Shuman: "If I Had a Tail" "My God Is the Sun" "Smooth Sailing By the sample of this video, it seems we have a band returned to the good old days of “Hot Fuss”. Awaiting for the arrival of the new album “Battle Born” scheduled for September we can enjoy for now this electrifying “Runaways”. Watch Queens of the Stone Age ‘If I Had a Tail’ Video

    By the sample of this video, it seems we have a band returned to the good old days of “Hot Fuss”. Awaiting for the arrival of the new album “Battle Born” scheduled for September we can enjoy for now this electrifying “Runaways”. Watch Queens of the Stone Age ‘If I Had a Tail’ Video Warning: this playlist is extraordinarily heavy and may contain maximum riffage. Listen to the Best of Queens of the Stone Age playlist with Amazon Music Unlimited.

    Queens of the Stone Age is a rock band from Palm Desert, California, United States. The band is frequently labeled stoner rock, although they reject the label. They developed a style of riff-oriented, heavy music which the band's founder and mastermind Josh Homme described as "robot rock", saying that he "wanted to create a heavy sound based o… 29-6-2013 · Former Queens Of The Stone Age bassist Nick Oliveri was involved in a car accident earlier this week, according to reports. It is unknown whether Oliveri sustained any serious injuries in the auto-accident, but his band Mondo Generator posted a message on their official Facebook account revealing that he was “shaken up” after the collision.

    The band was joined by Queens of the Stone Age for the Australia and New Zealand tour, during which a nightly coin toss determined who opened. The tour closed in Europe with supporting synth-pop act Cold Cave. After a month-long break, Nine Inch Nails again hit the road on a joint tour with Soundgarden. 22-3-2016 · I've been a fan of Queens of the Stone age since their first record. My best friend had seen them open up for the Smashing Pumpkins in 1999 and bought their first record. We listened it to it from front to back and I was immediately hooked. I went out and bought the first self titled record and then bought Rated R when it was released that next

    Queens of the Stone Age is a rock band from Palm Desert, California, United States. The band is frequently labeled stoner rock, although they reject the label. They developed a style of riff-oriented, heavy music which the band's founder and mastermind Josh Homme described as "robot rock", saying that he "wanted to create a heavy sound based o… Album details. Artist: Queens of the Stone Age: Album Queens of the Stone Age / Like -0.36 dB -14.59 dB 3:36 03-The Vampyre Of Time And Memory DR9 -0.62 dB -12.54 dB 4:57 04-If I Had A Tail DR9 -0.30 dB -10.66 dB 3:58 05-My God Is The Sun DR9 -0.86 dB -13.93 dB 4:39 06-Kalopsia DR9 -0.33 dB …

    Discografia de Queens of the Stone Age; Queens of the Stone Age performing at the Eurockéennes festival near Belfort, France, July 1, 2007. From left to right: Josh Homme, Troy Van Leeuwen, Dean Fertita, Michael Shuman: "If I Had a Tail" "My God Is the Sun" "Smooth Sailing Queens of the Stone Age-You Think I Ain't Worth a Dollar, But I Feel Like a Millionaire

    Queens of the Stone Age Concerts & Coverage on Exclaim!. official queens of the stone age vampyre of time and memory lyrics at cd universe. i want god to come and take me home 'cause i'm all alone in this crowd who are you to me? who am i …, the band was joined by queens of the stone age for the australia and new zealand tour, during which a nightly coin toss determined who opened. the tour closed in europe with supporting synth-pop act cold cave. after a month-long break, nine inch nails again hit the road on a joint tour with soundgarden.).

    Privacy & Cookie Policy Find album reviews, stream songs, credits and award information for XXX - Original Soundtrack on AllMusic is to be trusted. Where James Bond had John Barry, XXX has a bunch of alt-metal meatheads and Gavin Rossdale's first solo track, "Adrenaline," is Bush with a hip makeover, and Queens of the Stone Age show why they're considered

    22-3-2016 · Queens Of The Stone Age -Like Clockwork - Amazon.com Music stone age like clockwork queens of the stone songs for the deaf josh homme appear missing sat by the ocean era vulgaris god is the sun If you want to check this album out I think most people will say to listen to "If I Had a Tail" which is a great song and does represent the 26-3-2018 · Innings Festival draws to a triumphant close with Chris Stapleton, Counting Crows in Tempe. Chris Stapleton brought the Innings Festival to a triumphant close, ending a weekend that also featured Avett Brothers and Queens of the Stone Age.

    22-3-2016 · I've been a fan of Queens of the Stone age since their first record. My best friend had seen them open up for the Smashing Pumpkins in 1999 and bought their first record. We listened it to it from front to back and I was immediately hooked. I went out and bought the first self titled record and then bought Rated R when it was released that next A complete lack of clothing, however, was often associated with youth or poverty; it was common for children of all social classes to be unclothed up to the age of six, and for slaves to remain unclad for the majority of their lives. [failed verification] Certain clothing …

    9-7-2013 · A handful of bands have previously released music on USB drives, but it's been a few years since we've heard of anyone bothering with the fo... Queens of the Stone Age Expand North American Tour Schedule, Add Toronto Date Published Jun 10, 2013 Queens of … 16-5-2013 · Queens of the Stone Age are pretty much releasing all of their new album, …Like Clockwork, in little pieces, and we’re all the better for it. Thanks to the disturbing, yet visually arresting work of UK artist Boneface, each clip has been accompanied by some truly unique animation of a dystopian

    Check out Queens Of The Stone Age on Amazon Music. Stream ad-free or purchase CD's and MP3s now on Amazon. 3-6-2013 · Here are two things to get out of the way regarding Queens of the Stone Age’s sixth record, …Like Clockwork. First: Prodigal renegade bassist and facial-hair terrorist Nick Oliveri sings backup on one song here. That’s it. So this is hardly a reunion of the QOTSA lineup that made 2002’s

    26-3-2018 · Innings Festival draws to a triumphant close with Chris Stapleton, Counting Crows in Tempe. Chris Stapleton brought the Innings Festival to a triumphant close, ending a weekend that also featured Avett Brothers and Queens of the Stone Age. 6-9-2019 · Like the Beatles White album, this collection of gems has something for everyone, from the poppy " I sat by the ocean " to the powerhouse juggernaut of " If I had a tail " to the smouldering magnificence of " Kalopsia " to the funk and grind of " Smooth Sailing ". "Its all down hill from here" Josh reflects on closer " Like Clockwork ".

    if i had a tail queens stone age sample

    Download Queens of the Stone AgeLike Clockwork (2013

    T.U.B.E. 2018. 28-4-2018 · tecate pa'l norte 2018 parque fundidora monterrey, nl méxico apr. 21st., 2018 setlist: 1 intro (walk the night (the skatt brothers song) 0:00 2 my god is the..., album details. artist: queens of the stone age: album queens of the stone age / like -0.36 db -14.59 db 3:36 03-the vampyre of time and memory dr9 -0.62 db -12.54 db 4:57 04-if i had a tail dr9 -0.30 db -10.66 db 3:58 05-my god is the sun dr9 -0.86 db -13.93 db 4:39 06-kalopsia dr9 -0.33 db …); album details. artist: queens of the stone age: album queens of the stone age / like -0.36 db -14.59 db 3:36 03-the vampyre of time and memory dr9 -0.62 db -12.54 db 4:57 04-if i had a tail dr9 -0.30 db -10.66 db 3:58 05-my god is the sun dr9 -0.86 db -13.93 db 4:39 06-kalopsia dr9 -0.33 db …, check out queens of the stone age on amazon music. stream ad-free or purchase cd's and mp3s now on amazon..

    Top Tracks Queens of the Stone Age - YouTube

    Use been in a sentence been sentence examples. find album reviews, stream songs, credits and award information for xxx - original soundtrack on allmusic is to be trusted. where james bond had john barry, xxx has a bunch of alt-metal meatheads and gavin rossdale's first solo track, "adrenaline," is bush with a hip makeover, and queens of the stone age show why they're considered, castles dragons kings and queens theme ideas for your library and literacy activities for your preschool classroom. castle word wall. place words with pictures on the library wall: castles, princess, queen, king, moat, knight, crocodile, etc. puppet fun. add medieval puppets in the library for the children to act out some of their favorite stories.).

    if i had a tail queens stone age sample

    Castles Dragons Kings and Queens Theme for Preschool

    Queens of the Stone Age Albums songs discography. if i had a tail: queens of the stone age: 1: 2014: smooth sailing: queens of the stone age: 1: 2017: the way you used to do: queens of the stone age: 1: queens of the stone age: 1: 2002: sample this school boy: queens of the stone age: 1: 2004: stone age complication: queens of the stone age: 1: ep + compilation. year title artist, queens. rogues. loners. the last hope characters. females. tigerclaw's fury characters. mapleshade's vengeance characters. main characters. goosefeather's curse characters. mentors. banished or …).

    if i had a tail queens stone age sample

    Discografia de Queens of the Stone Age – Wikipédia a

    Nine Inch Nails Wikipedia. album details. artist: queens of the stone age: album queens of the stone age / like -0.36 db -14.59 db 3:36 03-the vampyre of time and memory dr9 -0.62 db -12.54 db 4:57 04-if i had a tail dr9 -0.30 db -10.66 db 3:58 05-my god is the sun dr9 -0.86 db -13.93 db 4:39 06-kalopsia dr9 -0.33 db …, queens. rogues. loners. the last hope characters. females. tigerclaw's fury characters. mapleshade's vengeance characters. main characters. goosefeather's curse characters. mentors. banished or …).

    if i had a tail queens stone age sample

    Bat For Lashes – “Laura” Musiclipse

    Ranking Every Queens of the Stone Age Album from Worst to. official queens of the stone age if i had a tail lyrics at cd universe. gitchy, gitchy ooh la la da doo ron ron you won't get far i'm machine i'm obsolete in the land of the free lobotomy i wanna su, it's interesting to hear the guitarist complaining that they had to trim their set down because it being part of a festival. usually they' d play around a 3 hours + set. although this concert had been trimmed down to 84 minutes - they are glorious 84 minutes!).

    if i had a tail queens stone age sample

    Queens Of The Stone Age Continue To Parcel Out New Album

    Top Tracks Queens of the Stone Age - YouTube. official queens of the stone age vampyre of time and memory lyrics at cd universe. i want god to come and take me home 'cause i'm all alone in this crowd who are you to me? who am i …, 6-9-2019 · like the beatles white album, this collection of gems has something for everyone, from the poppy " i sat by the ocean " to the powerhouse juggernaut of " if i had a tail " to the smouldering magnificence of " kalopsia " to the funk and grind of " smooth sailing ". "its all down hill from here" josh reflects on closer " like clockwork ".).

    Queens. Rogues. Loners. The Last Hope characters. Females. Tigerclaw's Fury characters. Mapleshade's Vengeance characters. Main characters. Goosefeather's Curse characters. Mentors. Banished or … Queens of the Stone Age-You Think I Ain't Worth a Dollar, But I Feel Like a Millionaire

    Queens. Rogues. Loners. The Last Hope characters. Females. Tigerclaw's Fury characters. Mapleshade's Vengeance characters. Main characters. Goosefeather's Curse characters. Mentors. Banished or … A complete lack of clothing, however, was often associated with youth or poverty; it was common for children of all social classes to be unclothed up to the age of six, and for slaves to remain unclad for the majority of their lives. [failed verification] Certain clothing …

    Queens of the Stone Age-You Think I Ain't Worth a Dollar, But I Feel Like a Millionaire Warning: this playlist is extraordinarily heavy and may contain maximum riffage. Listen to the Best of Queens of the Stone Age playlist with Amazon Music Unlimited.

    29-6-2013 · Former Queens Of The Stone Age bassist Nick Oliveri was involved in a car accident earlier this week, according to reports. It is unknown whether Oliveri sustained any serious injuries in the auto-accident, but his band Mondo Generator posted a message on their official Facebook account revealing that he was “shaken up” after the collision. Find album reviews, stream songs, credits and award information for XXX - Original Soundtrack on AllMusic is to be trusted. Where James Bond had John Barry, XXX has a bunch of alt-metal meatheads and Gavin Rossdale's first solo track, "Adrenaline," is Bush with a hip makeover, and Queens of the Stone Age show why they're considered

    if i had a tail queens stone age sample

    Clothing in the ancient world Wikipedia